Ibiza Chillout 2000

Unique Ibiza Posters designed and sold by artists. Chill OutとLoungeはシチュエーションによるスタイルの音楽なので、いろんなジャンルが混在しています。分かりずらいジャンルですので、その概略を紹介します。. BK Duke feat. Découvrez des commentaires utiles de client et des classements de commentaires pour Chillout in Ibiza by Various Artists (2000-05-23) sur Amazon. Ibiza music synonyms, Ibiza music pronunciation, Ibiza music translation, English dictionary definition of Ibiza music. Alexander Volosnikov - Ancient Shores (Original Mix)003. Bocca ist das erste Crossover aus ChillOut, Electronica und klassischen Oper-Arien, gesungen von Olivia Safe. Don't forget to Like & Share the mix if you enjoy it!. Tuesday 5 June 2018 from 23. Here are some popular dates: the club. ambient chillout ibiza trance license-free Heinsberg. This webpage belongs to Ibiza Spotlight S. Re-visit summer 2000 with this awesome Club Mix Ibiza 2000 compilation disc archive upload! DISC 1 has the more heavier dance tracks and trance tracks. It has got a beautiful and well cared garden and a 62sqm private swimming pool with Jacuzzi and an amazing 160 m2 top roof terrace with chillout area. Ibiza Chillout Tunes 2019. Chilled Ibiza, Minimal Lounge - Night Full of Ecstasy. Title: Ibiza Style 04-2019, Author: Ibiza Style Magazine, Name: Ibiza Style 04-2019, Length: 180 pages, Page: 1, Published: 2019-08-01 Es gibt rund 2000 bereits bezahlte Anträge von. Label: ZYX Music - ZYX 81298-2 • Series: Ibiza Chillout - 2 • Format: 2x, CD Compilation • Country: Germany • Genre: Electronic • Style: Ambient, Downtempo. The 125th Sanctuary Show which aired on Ibiza Radio 1 yesterday is now available on Mixcloud. com/watch?v=m9hs80x-U5c 1. 29: 65 Himerius (Darkness Lounge Paradise Mix) (Erotic Chill Out. Ibiza Chillout Top 50 (Selected by Tito Torres). Spanish private news agency Europa Press. This Is Ibiza 2000 by Various Artists (CD, May-1999, Beechwood Music) AU $10. Chillout King Ibiza. Beat Les - Miss You (Christos Fourkis Chill Out Mix). Feb 9, 2017 - Explore Victoria Fuentes's board "Chillout Ibiza Music", followed by 538 people on Pinterest. Sustain, use your brain, health's. Ibiza Lounge. Sexy Lady: Sunset Chill Out Lounge Cafe in Ibiza, Afterhours Air Bar Grooves (Sueno del Mar Collection Compiled by Astro Moon Ibiza 2013 DJ) Lounge Safari Buddha Chillout do Mar Café Релаксация гостиная Ibiza кафе: Sexy электрогитара & Лучшее из Чилаут Лаунж. Empezó sus emisiones en 2006 y su número de oyentes no ha parado de crecer desde entonces gracias a su apuesta en las últimas tecnologías y a su cuidada selección músicas. Ibiza Euphoria by Various Artists, Alex Gold, Agnelli & Nelson (2000-11-07) Format: Audio CD. Download thousands of free house music, dj mixes & dj tracks from the internets largest free house music community. VA - Only a Dream Finest Ibiza Chillout torrent download location Download Direct VA - Only a Dream Finest Ibiza Chillout could be available for direct download Spónsored Link google. Alexander Volosnikov - Ancient Shores (Original Mix)003. Le chill-out (parfois écrit chillout, chill out, ou simplement chill) est un terme décrivant plusieurs genres de musiques électroniques caractérisées par leur mélodie reposante et leur tempo modéré — « chill » est un mot argotique qui signifie « reposant » ; par métonymie, il désigne un style de musique planante diffusée dans les salles de chill-out. Лехия Гданьск. The small farmhouse at the end of the airport runway in Ibiza has become one of the best known clubbing destinations on the planet, principally due to the hedonistic and no holds barred afterhour sessions of Monday daytime party Circo Loco. Find album reviews, stream songs, credits and award information for Ibiza Chillout [Ibiza] - Various Artists on AllMusic - 2000. Тем не менее, есть диск, есть 11. Every Sunday at 11:00 Neevald presents Sexy Sunday in Ibiza Global Radio – one-hour relaxing mixes of chill, deep and nu-disco house. Henry Hacking – Get Down … Continue lendo. The finca has four bedrooms en suite, a fully equipped kitchen, large living room and dining room. Buy mp3 Chillout 2000 Vol3-Early Dawn album of Ambient - Various Artists. Bright, spacious and stylish, this impressive luxury family villa is situated on a 17. With a simple click you can listen to the best live radio stations from the United Kingdom. Greg Barker & Dynamic Illusion - Last Breath (ChillOut Mix) 013. The 20th anniversary of Kevin & Perry Go Large will be celebrated in Ibiza. Descubre Ibiza con la realidad aumentada. Various Artists (Artist) Format: Audio CD. Free postage. The newer part of town, down by the waterfront, is an amalgamation of high-end restaurants, well-dressed bars and market stalls selling all sorts of. The Chillout Players, Chilled Ibiza — Chill House 2020 03:41. Stuff to play as you relax on a patio with a nice cold drink, or something very nice like that. Merge Of Equals - You Can Make Me Smile. 121007 Episode Sunrise Cloudsea by Abstract Art of Noise. De Seat Ibiza maakt sinds 1984 deel uit van modellenprogramma. Old Music 13. Chillout Ibiza FM. 18 Totally Chill Songs For The Summer. TerritoryDeepHouse - Ibiza Summer Mix 2020 House Relax (New & Best Deep House Music Chill Out Mix). , NIF: B57221541, Apartado de correos 1027. (2000) Café Ibiza Vol. Ibiza Summer Music Mix 2018 - Camila Cabello, Coldplay, Kygo, Ed Sheeran Style - Chill Out. Over one million legal MP3 tracks available at Juno Download. Consejos para el alquiler de barcos en Ibiza y Formentera buena música chill out de serif;">Después del 2000, el turismo en Ibiza cambió drásticamente. Ministry of Sound: Ibiza Chillout Session (disc 2) Ministry of Sound: The Chillout Sessions (Digital Edition) Ibiza Summer 2000 (Mixed by Judge Jules) (disc 1. We find this genuine Ibizan property in the surroundings of Santa Gertrudis, one of the best preserved areas in the centre of the island. Follow rhybooze to never miss another show. Listen online, no signup necessary. Музыка онлайн: Ibiza Party Video. Chillout 2000 Volume 4 Ibiza Box Set 3CD Compilation Downtempo IDM Ambient Chill. Chilled Ibiza - Winter Lounge with Chillout 2020. com website. Listen to VA - Ministry Of Sound The Chillout Session 1 (2001) by rhybooze for free. View credits, reviews, tracks and shop for the 2005 CD release of The No. Ainsi, que vous préfériez acheter votre produit Ibiza Chill Out Vol. Sexy Ibiza (Erotica Bar Lounge) 16. Beautiful Infinity. Com infinita tris. View credits, reviews, tracks and shop for the 2000 CD release of GQ Presents Ibiza Chillout on Discogs. Most relaxing chillout lounge music from the real Ibiza in this LUXURY mix Part 5 by Schwarz & Funk. EXCLUSIVE CONTENT ARTICLES, FEATURES, INTERVIEwS AND GUIDES AVAILABLE. ESP - WMMCD011 • Series: Chilled Ibiza • Format: 2x, CD Mixed • Country: UK • Genre: Electronic • Style: Downtempo, Ambient. Villa mit Meerblick in der Nähe von Cala Bassa, Ibiza zu verkaufen › Niki Agency Ibiza, Ihre Immobilienmakler auf Ibiza. See more ideas about Ibiza, Music, Ibiza clubs. Ibiza Chillout Session is een CD (ALBUM) van Various Artists. 95 (4) Chris Smith & Rob Grega ‎-"El Divino Ibiza • Brazil Chilled"- Deep House-NEW. DC 10, Carrettera de las salinas Km 1, 07817 Sant Jordi de ses Salines. Free postage. Situated on the highly sought after Can Furnet urbanisation, this villa is very peaceful and secure. Inspired by the balearic house vibes of Ibiza the passionate Germany based producers Bob Schwarz and Jesse Funk established the musical project SCHWARZ & FUNK in 2001. 07 April 2015, 1:40pm. Fans around the world are still mourning the loss of Space Ibiza, an iconic staple of Ibiza and the world of electronic music. - RadioZET_Chill [00:00]. Look at my other stuff as. Chillout in Ibiza. Escucha gratis todas las emisoras de Inglés en radio. « Costa Del Mar - Chillout » offers you a wonderful programming by selecting the best of Ambient, Lounge, Easy Listening and Chillout Music. 2020-11-06 $2. The Jockey Club mediates between the two with chill-out music playing at a respectable volume. Chillout Leisure เที่ยวทั่วไทย ไป. Every Sunday at 11:00 Neevald presents Sexy Sunday in Ibiza Global Radio – one-hour relaxing mixes of chill, deep and nu-disco house. I was studying in Leeds at the time and used to get the Mega Bus over to Manchester for a quid on a. Резидент клубу Ibiza Beach Club. Various Artists - Ibiza Chill 2002 Released 2005-02-02 on Manifold Records Download on iTunes: https://geo. Merge Of Equals - You Can Make Me Smile. Spanish private news agency Europa Press. Peter Pearson - This Way to a Dream [04:07] 03. 3 out of 5 stars 13. Chilled Ibiza, Minimal Lounge - Night Full of Ecstasy. Ibiza Royal Beach is the island’s most fashionable residential complex. TITLE added to MP3 Basket. Remaining Time -. Chillout Ibiza FM. Écoutez gratuitement des radios du genre Ambient sur radio. Konto und August 2000 "Bitte wiederholen" 26,68 €. ★ibiza chilloutイビザ島チルアウトミックスCDラウンジクラブリゾートイビザ島をイメージした、チルアウトミックスCD極上リゾートミュージック. Best Chill Out Music – Relaxing Chill Out, Summer Hits, All Best Songs, Holiday Rest Beach Party 2000. If he stuck with this style we might have a replacement for Jose Padilla when he imminently pops his clogs. The pool is. 8 out of 5 stars 1,191. The popularity of this music has led to many parties with sensual sounds and exceptional people on the dancefloor. Old Music 13. Deeper Sublime & Krapan - La Verdad (feat. Filename J:\FLAC to What. Spacious, beautifully designed modern villa in Cala Carbo with iconic views of the Ibiza coastline. This Is Ibiza 2000 by Various Artists (CD, May-1999, Beechwood Music) AU $10. This webpage belongs to Ibiza Spotlight S. Chillout in Ibiza. Find album reviews, stream songs, credits and award information for Ibiza Chillout [Ibiza] - Various Artists on AllMusic - 2000. View credits, reviews, tracks and shop for the 2000 Box Set release of Ibiza Chillout on Discogs. Cana Mar is a great 4-bedroom Ibiza villa with stunning views close to Ibiza Town & Playa den Bossa. All’interno di Pacha Ibiza Chillout sono presenti 30 tracce dei migliori artisti di questo genere musicale: Louis the Child, Milk & Sugar, Dirtyhertz, Lissat. Тем не менее, есть диск, есть 11. Guiddo Featuring Louie Austen - Dream Your Dream - Remixes. Ribattezzato 'Padrino del chill out', il producer si è spento nel sonno sull. Indie Dance Classics - Back To The Old Skool [3CD] (2013). Discover online now. Deep House Ibiza 2020 presents tracks and remixes from Topsy Crettz, Dani Corbalan, Melih Aydogan, A-Mase & Sharliz, Hakan Akkus, VOLB3X, Remundo, Alex Spite & Olga Shilova, Mar G Rock, Rafo, Echevo, DJ Combo & Maureen Sky Jones, Sean Norvis & Copamore ft. Sounds to help you hold on in there. Very attractive villa with pool and guest house on a unique private location. Vanaf de jaren 90 is de Ibiza technisch gebaseerd op Volkswagen-techniek. Ibiza chillout. 2000 : Ibiza Chillout [Ibiza] Ibiza IBITCD 07 : CD : 2001 : Ibiza Chillout [Ibiza] ZYX Music AYA 813452 : CD : 1 / 5. Streamez en Hi-Fi ou téléchargez en vraie qualité CD sur qobuz. Related searches. Mr Chillout Beat - Chill Out Beat (87bpm) [Lap Dancing Grooves] [04:55] 05. Premium Chillout Lounge by Schwarz & Funk 6 год. 8 FM Mallorca. gl/9qKve3 Subsc. Online, everywhere. Écoutez gratuitement des radios du genre House sur radio. Ibiza Dance Party. Look at my other stuff as. Very attractive villa with pool and guest house on a unique private location. Daki 2000: $1. As a DJ Sven Van Hees travelled the globe past decades (and continues to do so) with Dj sets in Europe, Usa, Australia, Asia & The Caribbean. ANNUAL RENTAL – SANTA GERTRUDIS, Amazing modern finca for rent in the country side of Santa Gertrudis. 00 Peak level 98. DegreeZero - Pray With Me. Compiled, and arranged by Adam G. 2 × Cassette, Mixed Country. Incluye un viaje mental a sus salidas y sus puestas de sol. com/watch?v=m9hs80x-U5c 1. Breathing (Chillout Mix). Vom Album „Summer Chill 2017 – Stress Relief, Summer Beach Music, Ibiza Relaxation, Calm Waves“ von Chill Out 2016 auf Napster. 1 | Ibiza Lounge, Acoustic Chill Out, Ibiza Lounge Club. Pianochocolate – Little Sunshine (Lounge & Chill Out Island Treasures), Vol. 13,99 € Pacha Ibiza House Collection (2000-2009) Various. amphotic angenehme hektik, eddie a dj mix set 2018 trip hop nu jazz dnb abstract lounge, the condition saphire lounge 2000, atomic lounge a cool selection by dj mike 2003, ils greatest hits, hip hop music. Follow rhybooze to never miss another show. DJs can upload and share mixes free with no limits. Everyone was dancing non-stop. Listen Free bit. Canada Chill 128 kbps MP3. VA - Deep House Ibiza: Sunset. Calm Ibiza - Winter Edition 2011 (Pure Ibiza Chillout). IBIZA is a magnet for young Britons - holding out the promise of sun, sex and drugs. 5 global ratings. Longtime resident DJ Pete Gooding began his contributions to the series in the early 2000's. Instrumental Chill-Out Music Playlist | Ibiza Chill Out, Lounge Music Café, Instrumental. Joe Bonamassa - A New Day Yesterday(2000 )320kbps. com/watch?v=m9hs80x-U5c 1. Drawing on its experience and always at the forefront of. 0 % Test CRC A8A18829 Copy CRC A8A18829 Track not present in AccurateRip database Copy OK Track 14 Filename F:\ЗАГРУЗКИ\ Ibiza Sunset Chill 2CD (2009)\CD2\14. Elysium Mind - Sunset Party 02. With access to both sides of the Mar Amantis complex, guests can enjoy swimming up high with the pool terrace boasting elevated views of the bay, or one of the many glorious chill-out zones to wile away the quiet hours. Ibiza Soundset Lounge & Chillout 2015 is a English album released on Mar 2015. Laroz Camel Rider Original Mix (8:24) Choopie, Golan Zocher. Music Mailorder and Download Store for Progressive and Psychedelic Trance, Chill-Out as Download, CD, Vinyl. View credits, reviews, tracks and shop for the 2000 CD release of Ibiza Chillout Volume 2 on Discogs. 群星 2000《Café Del Mar Vol. Related searches. Deep House Ibiza 2020 presents tracks and remixes from Topsy Crettz, Dani Corbalan, Melih Aydogan, A-Mase & Sharliz, Hakan Akkus, VOLB3X, Remundo, Alex Spite & Olga Shilova, Mar G Rock, Rafo, Echevo, DJ Combo & Maureen Sky Jones, Sean Norvis & Copamore ft. 4 – Tema – Grillos (2004) Café Ibiza Vol. Ibiza Chillout: Special Classic Mix Edition music CD album at CD Universe, A voyage through ambient sound spheres, enjoy top rated service and worldwide shipping. Chillout (Ibiza del Mar Chillout's Best Experience). The cost, for example, to Ibiza Town for 8 of you will be around €80. 2 × Cassette, Mixed Country. Скачать: VA - Ibiza Sexy Jazz (Smooth Beach Chillout Lounge Vibes) (2019) бесплатно. A smooth transition. All booklets, covers, CDs, etc will be carefully included. EDM,Progressive Trance,Deep House,Techno,Breaks,Sunset Beach & Sunrise Mountain Hi 121007 Episode Sunrise Cloudsea by Abstract Art of Noise World number 1 iTunes Balearic and EDM podcast of 155 countries. Mr Chillout Beat - Chill Out Beat (87bpm) [Lap Dancing Grooves] [04:55] 05. This week’s #TBT Series installment takes us back 27 years to the heydays of Ibiza partying, and to one of the most revered clubbing destinations in the world: Amnesia Ibiza. Главная | Регистрация | Вход. The Classic Chillout Album: A Collection Of Classics For A Modern World Amazon. We have luxury villas in Ibiza all over the island, close to Ibiza Town, in surprisingly remote country areas and near beautiful, unspoilt beaches and coastal locations. Ribattezzato 'Padrino del chill out', il producer si è spento nel sonno sull. Latin Jazz Band (Balearic Chillhouse Music) 19. CHILLOUT IN IBIZA ~ Vol 4 ~ 2CD VGC - Chill Out Smart Records. Chill Out Music 112; Drink Bar 007; Beach Party 2000; Ibiza Chill 999; Deep Lounge 0700; Hot Music 69; Chill Out 2017; Relaxation 2015; Keep Calm 666; Party Night 2016; Summer 2017; Summer Chill 777; Mellow Chill Out 009; After Party 004. The pool is. Free Pass - Feel Me 04. Sounds to help you hold on in there. The Chillout Lounge Mix - Strength. Listen to Meu Amor (Chillout Version) by B Floor, 5,517 Shazams. amphotic angenehme hektik, eddie a dj mix set 2018 trip hop nu jazz dnb abstract lounge, the condition saphire lounge 2000, atomic lounge a cool selection by dj mike 2003, ils greatest hits, hip hop music. - RadioZET_Chill [00:00]. Cafe Ibiza - Best Of Balearic Ambient And Chill Out Music A journey through Ibiza s most beautiful places featuring the original sound of the island. In case of event cancellation, Amnesia Ibiza undertakes to refund the full amount paid by the customer. Смотреть VA - Ibiza Summer Club 2018 (2018) CD2 Скачать MP4 360p, MP4 720p. Компиляция Cafe Del Mar. com/watch?v=m9hs80x-U5c 1. The tunes here are really good. Sexy Ibiza (Erotica Bar Lounge) 16. Shop unique custom made Canvas Prints, Framed Prints, Posters, Tapestries, and more. The 5,000 plus capacity venue opened in 1976 and is one of only two major clubs on the island located close to the village of San Rafael, half-way between Ibiza Town and. cue) Total Time: 2:27:21 Total Size: 845 MB. House, Deep House, Chillout, Lounge, Club, Funk, Electro, Electronic music, Techhouse, Trance. Listen Now with Amazon Music. Listen online top songs Natalie Cole. Ibiza Ibiza Ibiza. Chillout, IBIZA | Share your dj sets, mixes, tracks and sounds with your fans and friends. Ibiza Groove Session is your channel for all the chill Out music, where you can experience music, in high audio quality. Built in 2013 and finished to an exceptional standard, this minimalist contemporary villa is an architectural masterpiece built to deliver the utmost luxury while making the most of the stunning views across the sea to the Es Vedra rock. In 1991 a young English DJ called Alex P had the idea of setting up a roof behind the bar to play for the audience more peacefully so people could enjoy their drinks on a chill-out terrace. Chill, Chillstep Unlimited, Cafe Club Ibiza Chillout, Ibiza Chillout Unlimited, Cafe Amsterdam Fitness Chillout Lounge Workout, Chill Out Del Mar, After beach ibiza lounge, Buddha Lounge DJs. SCHWARZ & FUNK - Serious Chillout & Soulful Lounge Music. Chillout Lounge Ibiza - L. (2000) Café Ibiza Vol. Ibiza Chill Out не входит в официальную дискографию проекта Del Mar, и выпущена с чешского лейбла, не имеющего никакого отношения к Cafe Del Mar Music. It's A Dream (Rmx). Zouave - Sentir El Calor Chillout Ibiza Balearic Lounge (Wonderful Chill Out Music). ly/Maretimo-Webradios The ultimate Chillout trip to Ibiza. While the former pioneered the Ibiza chillout sound, any notion that Mambo lingers in Cafe Del Mar's shadow when it comes to quality should be put to rest after hearing these outstanding compilations. Видеоканал Радио Costa Del Mar - Chillout. 1, HD, 2018, 4+Hours, Beautiful Chill Cafe Mix. Descúbrelos en línea ahora. White Ibiza Villas requires a credit card security deposit of 2,000€. Détends-toi (Musique chillout relaxante), Vol. Chillout Factory - It's A Dream Rmx 2000 MP3 version. Guitarra G [chillout mix]. 39 chillout tunes that grace the decks of Cafe Mambo, Cafe Del Mar and other hangouts on the isle including, Zero 7 'Destiny', I Monster 'Daydream In Blue', Groove Armada 'At The River', Lemon Jelly 'In The Bath', Wamdue Project 'King Of My Castle', Bent. Chill covers various styles including Ambient, Easy listening. Label: Warner. Here`s another beach. Listen Free bit. 2: A Laid Back Mix of Blissful Beats and Chilled-Out House Various Artists. Re-visit summer 2000 with this awesome Club Mix Ibiza 2000 compilation disc archive upload! DISC 1 has the more heavier dance tracks and trance tracks. ly/Maretimo-Webradios Welcome to "Ibiza Chillout Radio" tune in, relax, enjoy !. The 1999 edition, despite criticism that it didn't make full usage of the songs available, was well received as was the 2000 edition. The Gaudi inspired villa is surrounded by 3 hectaresof lush Mediterranean gardens where fruit trees and colourful bougainville asgrow. wav Peak level 98. 9 out of 5 stars 26. Clan Greco - Miles Ghost 00:00 02. L'art Mystique - Beautiful Things - Extended Mix [07:14] 02. View credits, reviews, tracks and shop for the 2000 CD release of GQ Presents Ibiza Chillout on Discogs. Главная | Регистрация | Вход. i was the one of the 2,000 people in the club! My first ever ibiza trip had just began. 0 Total Size: 590. in the global lounge chart, 2 nd in the global ambient chart and 3 rd in the global chillout chart. Скачай ibiza relax crew chillout dreams seabar mix и zelonka impossible dream ibiza chillout mix. Various Artists (Artist) Format: Audio CD. Chillout Ibiza FM. Cafe Del Mar - Seven Years (The Best of `94-2000 fine session). Spacious, beautifully designed modern villa in Cala Carbo with iconic views of the Ibiza coastline. Free postage. , NIF: B57221541, Apartado de correos 1027. 48 I truly love this collection of chill-out songs and tunesreminds me of evenings on the beach abroad with my friends and eventually my wife. Buy London club and worldwide tour event tickets, read our latest news, book fitness classes and more. If you like 'chill out' stuff then this is just for you! Read more. Ibiza Euphoria by Various Artists, Alex Gold, Agnelli & Nelson (2000-11-07) Format: Audio CD. VA - Best Sound Of Chill Lounge 2016 - 33 Chillout Downbeat Songs With Ibiza Mallorca Feeling 388. ARTIST: Various RELEASE TITLE: Toolroom Ibiza 2019 [Toolroom] LABEL: Toolroom GENRES: House, Tech House, Techno, Deep House, Afro House, Progressive House, Minimal / Deep Tech CATALOG: TOOL78001Z RELEASE DATE: 2019-05-10 QUALITY: 320kbps CBR Joint Stereo 44100Hz FTP DOWNLOAD DOWNLOAD DOWNLOAD 73 TRACKS: 1 – Leftwing : Kody – I Feel It (Original Mix) 5:52 / […]. Product News. wav Pre-gap length 0:00:02. Premium Chillout Lounge by Schwarz & Funk 6 год. The 125th Sanctuary Show which aired on Ibiza Radio 1 yesterday is now available on Mixcloud. Egoist - Its A Dream. Add to Wishlist. This is a stunning, spacious, Ibicencan-modern villa with spectacular views to the mountains and to the sea ideally situated close to the airport, the best beaches of the island and Ibiza Town. Nerja – Digital Impression. 27 For Found Future - A Place in the Sun (Sunset Chillout Mix) [04:56] Download VA - Cafe Deluxe Chillout Nu Ibiza Lounge (A Fine Selection Of 27 Ambient & Smooth Downbeat Tracks) (2016) Download for free. A sneak preview of one of the few real mansions left on Ibiza. Chillout Ibiza FM & Category: UK | Genres: Chillout, Chillout Ibiza FM. Loaded: 0%. This Ibiza Chillout [Ibiza] album was released in 2000 and featured titles like Why Does My Heart Feel So Bad? and The Time Is Now [Francois K Blessed Out Dub] from Moby and Moloko. Ibiza Chill Out Vol. Luto en Ibiza tras la muerte de Jose Padilla, ‘padrino’ del sonido ‘chill out’ y popular Dj en ‘El café del Mar’ @2000-2020, HOLA S. mp3 14 MB;. Слушать онлайн Radio Record. Casa Amalia is a villa that truly has it all. Thalia Arrasando Emi 2000 UK Edition - CD - 2T. To celebrate my 125th Sanctuary Show, I had another Legend of Lounge supplying the guest mix; the one and only Afterlife. Alicia Keys Has Self Doubts. Music HD Winchester 6-05-2012, 10:59 Best Of Chillout Ibiza - Sunset Lounge 2CD. Inspired by the balearic house vibes of Ibiza the passionate Germany based producers Bob Schwarz and Jesse Funk established the musical project SCHWARZ & FUNK in 2001. 0 % Test CRC 3A2BA828 Copy CRC 3A2BA828 Accurately ripped (confidence 3) [C49EFD43] (AR v1) Copy OK Track 2. View credits, reviews, tracks and shop for the 2000 Box Set release of Ibiza Chillout on Discogs. Écoutez gratuitement des radios du genre Ambient sur radio. Chillout Ibiza FM. FISHER vs La Fuente - Losing It vs Dont Stop vs Kill Bill (DEEPSHOW Mashup) 9. We use cookies to personalise content and ads, to provide multimedia features and to analyse our traffic. The finca has four bedrooms en suite, a fully equipped kitchen, large living room and dining room. Check out Chillout and Lounge on the Beach from We Love To Lounge on Beatport. Ekkor kezdte a Deep House alappilléreit letenni Terry Lee Brown Jr és The Timewriter, Specdub megszállott rajongója lett a mestereknek. Ibiza Groove Session is your channel for all the chill Out music, where you can experience music, in high audio quality. Ibiza Royal Beach is the island’s most fashionable residential complex. Since the year 2000 Ivan has been performing solo sax together with DJs and electronic music. Thanks to an agreement between the Meliá Hotels International Group and Café del Mar, branding cradle of chill-out music, complete the innovative "Golden Mile" the Meliá Group promotes the new Magaluf hotels and features as the new ME or. 8 % Extraction speed 4. Shop unique custom made Canvas Prints, Framed Prints, Posters, Tapestries, and more. Glamorous and edgy all at once, Ibiza holidays are a clubber’s heaven, especially 24-hour party places like Ibiza Town and San Antonio. Listen online, no signup necessary. Ultra Nate & Marcimo – Peace (Club Mix) 1:02 04. This webpage belongs to Ibiza Spotlight S. Enjoy and share with a friend : ) Become a fan: http://goo. Two years later, Brandon Block joined him and as a result of this union the Space Terrace was born. It has been at the forefront of Europe’s dance music and clubbing scene for at least 25 years now, making its super-clubs and bars legendary. Arctic Circles 4 Buddha (Lounge Bar Music Club Mix) (05:58) 06. Mr Chillout Beat - Chill Out Beat (87bpm) [Lap Dancing Grooves] [04:55] 05. 4 – Tema – Grillos (2004) Café Ibiza Vol. I am looking for a more progressive underground sound. Nights (Festival Remix). MADRID (AP) — José Padilla, a Spanish disc jockey known as the Emperor of Chill for the chill-out music he played at sets in Ibiza, has died. chilton trininty technology college. Crazy All Night Party Mix - Chillout Dance Hits Straight from Ibiza, Sunset Sky. We use cookies to personalise content and ads, to provide multimedia features and to analyse our traffic. Joe Bonamassa - A New Day Yesterday(2000 )320kbps. Subscribe to stay connected to our channel and receive all of our video updates! - Ibiza Groove Session. Boasting fantastic space both indoors and out, a gorgeous private swimming pool and a delightful children’s play area, this is the ideal retreat for all the family. This year, around 700,000 of them are flocking aboard cheap flights to join the party, lured by the island's reputation for excess. Bocca im Enigma Studio auf Ibiza. 6 out of 5 stars 75. Dance/Electronic ℗ 2015 Ibiza Lounge Records. Download 52 Tropical Chill Out Lounge Stock Photos for FREE or amazingly low rates! New users enjoy 60% OFF. multiformat – "deejay, sound producer, remixer, designer" Проект образовался в 2000 году. 8 out of 5 stars 1,191. No, not Ibiza itself, but the man responsible for producing. Ibiza Dance Party. Ibiza’s capital, Ibiza Town, has an old quarter that’s earned itself a place on UNESCO’s World Heritage Site list. Download Chillout Lounge songs, singles and albums on MP3. Big, diverse and largely undiscovered, Ukraine is one of Europe’s last genuine travel frontiers, a nation rich in colourful tradition, warm-hearted people and off-the-map experiences. Various artists. Find many great new & used options and get the best deals for Various - Pacha Ibiza-Chillout /1 at the best online prices at ebay!. All booklets, covers, CDs, etc will be carefully included. CARL COX PICKS HIS TOP 10 SPACE IBIZA CLASSICS. Lisez des commentaires honnêtes et non biaisés sur les produits de la part nos utilisateurs. - Выберите стиль - 2Step Afro House Ambient Atmo⁄Prog Breaks Bass House BigRoom Breaks Chillout⁄Lounge Chillstep Club House⁄Vocal House Dance⁄Pop Dark Progressive Deep Techno Deep. The 2000's 2004 Archive: This is a When you're done correcting, feel free to submit *your* list of favorite chill-out songs of the 2000s. Deep House and Afro House music lovers this may be the deepest deep house cut out today. Listen Free https://bit. Brando – Body 1:30 02. Ibiza Sonica. Crazy All Night Party Mix - Chillout Dance Hits Straight from Ibiza, Sunset Sky. Ibiza Chillout - Balearic Lounge Collection. Breathing (Chillout Mix). Итало Диско. This is Ibiza Chillout Tunes 2017. Lounge Safari Buddha Chillout Do Mar Cafe - Blues Guitar [Ibiza del Mar Chillout's Best Experience] [05:01] 03. Follow rhybooze to never miss another show. Descúbrelos en línea ahora. 2017 - Sunset Lounge (Chillout Your Mind): 01. Essential Ibiza Chillout Box Set Various Artists (Artist) Format: Audio CD. Продам винил паком 5шт 5000р. Ibiza Sunset, Vol. 14 HOTQ LABEL: HOT-Q GENRE: House RELEASED: 2020-06-05 DOWNLOAD SIZE:: 360,08 MB TRACKS 25 #DAH - DAH16 06:16 126bpm/ 2 Hot 2 Stop -. This webpage belongs to Ibiza Spotlight S. Big, diverse and largely undiscovered, Ukraine is one of Europe’s last genuine travel frontiers, a nation rich in colourful tradition, warm-hearted people and off-the-map experiences. Ibiza Summer Music Mix 2018 - Camila Cabello, Coldplay, Kygo, Ed Sheeran Style - Chill Out. York - "The Awakening (Me. The vibe is very much we're-having-a-great-sangria-stoked-time-on-the-southern-tip-of-Ibiza, OK? by Kim Taylor Bennett. New album Chillout Ibiza 2017 (2017) FLAC available for download on site losslessalbums. Location / City. Listen to albums and songs from Ibiza Chill Out. 3 pre-owned from £1. Ibiza Ibiza Ibiza. Feb 9, 2017 - Explore Victoria Fuentes's board "Chillout Ibiza Music", followed by 538 people on Pinterest. Premium Chillout Lounge by Schwarz & Funk 6 год. Ribattezzato 'Padrino del chill out', il producer si è spento nel sonno sull. XCloud - Chillout Stories #49. Brando – Body 1:30 02. Jakatta - "American Dream (Radio Edit)" 2. Beats After Sunset Weekend Chillout Music Zone Chillout Music Masters. Drawing on its experience and always at the forefront of. MADRID (AP) — José Padilla, a Spanish disc jockey known as the Emperor of Chill for the chill-out music he played at sets in Ibiza, has died. This is Ibiza Chillout Tunes 2017. The main house has five bedrooms and four bathrooms,. Arkham Knights - Knightfa. Chillout Ibiza FM & Category: UK | Genres: Chillout, Chillout Ibiza FM. Die Öffnungszeit beginnt um 17 Uhr, wobei sich die meisten Besucher (in der Sommersaison mehrere tausend pro Tag) kurz vor Sonnenuntergang auf der Terrasse und den Felsen vor dem Café del Mar versammeln, um dem legendären Ibiza Sunset beizuwohnen, einem Sonnenuntergang, der meist mit einem großen Applaus aller Besucher endet. Von Glück und Bewusstseinserweiterung Hola liebe Leser , Akoo auf dem MTV Millenieum Festival 2000 auf Ibiza. Wow, what an album. Nerja – Digital Impression. Комментарии. Yeah, I know, its from 1999. 0 % Extraction speed 4. The 20th anniversary of Kevin & Perry Go Large will be celebrated in Ibiza. One will find several fruit trees on the plot, a kids play area, and several chill-out terraces. A list of lyrics, artists and songs that contain the term "Chill out" - from the Lyrics. VA-Ibiza Elemental Chillout-(AYA55597-2)-CD-2008 Artist : VA Album : Ibiza Elemental Chillout Genre : Lo-Fi Source : CDDA Label : Ayia Napa Date : 00-00-2008 Encoder : LAME 3. Beat Les - Miss You (Christos Fourkis Chill Out Mix). WRZ Weekly New Singles [2018]. Unique luxury villa with overwhelming panoramic sea view. Download thousands of free house music, dj mixes & dj tracks from the internets largest free house music community. 2005 "Please retry" £2. The best Ibiza music CDs. Check out Chillout and Lounge on the Beach from We Love To Lounge on Beatport. Label: Various | Genre: Chillout, Lounge, Downtempo. White Ibiza Villas requires a credit card security deposit of 2,000€. I have been listening to chillout music since 2000 and have to say this is very good value for money if you can get it for a pound or so like i did on Ebay. Joe Bonamassa - A New Day Yesterday(2000 )320kbps. Electronic Style. Piano Cove - Dan Gibson's Solitudes album Dan Gibson's Solitudes mp3 download DOWNLOAD Piano Cove album: Artist - Dan Gibson's Solitudes mp3 Album - Piano Cove mp3 Year - 2000 Genre- Chill Out: New Age Tracks: Beach-Combing Drawn To The Sea Majestic Grace Tidal Pools Glistening Sands Contemplation Voices Of The Cove Solace A Peaceful Path Download. 4 – Tema – Grillos (2004) Café Ibiza Vol. Chill-out areas Outdoor dining area luxeFeatures6 luxeFeatures17 luxeFeatures25 luxeFeatures96 luxeFeatures98 luxeFeatures100 luxeFeatures101 luxeFeatures102 luxeFeatures105 luxeFeatures106 luxeFeatures109 luxeFeatures110. Ibiza Groove Session is your channel for all the chill Out music, where you can experience music, in high audio quality. VA - Best Sound Of Chill Lounge 2016 - 33 Chillout Downbeat Songs With Ibiza Mallorca Feeling 388. This calendar is recognised as the official Ibiza Summer Party Calendar, with day-by-day updated listings of all clubs and DJs and tickets for all the major clubs. Vom Album „Summer Chill 2017 – Stress Relief, Summer Beach Music, Ibiza Relaxation, Calm Waves“ von Chill Out 2016 auf Napster. Le chill-out (parfois écrit chillout, chill out, ou simplement chill) est un terme décrivant plusieurs genres de musiques électroniques caractérisées par leur mélodie reposante et leur tempo modéré — « chill » est un mot argotique qui signifie « reposant » ; par métonymie, il désigne un style de musique planante diffusée dans les salles de chill-out. 132,228,032 stock photos online. A smooth transition. Sexy Lady: Sunset Chill Out Lounge Cafe in Ibiza, Afterhours Air Bar Grooves (Sueno del Mar Collection Compiled by Astro Moon Ibiza 2013 DJ) Lounge Safari Buddha Chillout do Mar Café Релаксация гостиная Ibiza кафе: Sexy электрогитара & Лучшее из Чилаут Лаунж. Black Coffee - BBC Radio 1 Essential Mix (Ibiza Season) 80s_lover (6. 6 out of 5 stars 75. The Annual 2004. « Costa Del Mar - Chillout » offers you a wonderful programming by selecting the best of Ambient, Lounge, Easy Listening and Chillout Music. 0 % Test CRC 3A2BA828 Copy CRC 3A2BA828 Accurately ripped (confidence 3) [C49EFD43] (AR v1) Copy OK Track 2. Café Ibiza Chillout Lounge February 19, 2015. La mejor manera de conocer y disfrutar la onda de la isla, desde cualquier lugar y en cualquier momento. TerritoryDeepHouse - Ibiza Summer Mix 2020 House Relax (New & Best Deep House Music Chill Out Mix). Find album reviews, stream songs, credits and award information for Ibiza Chillout [Ibiza] - Various Artists on AllMusic - 2000. 限 Existence - Final Dream. 2000 - 2004 by Frakkur. Inspired by the balearic house vibes of Ibiza the passionate Germany based producers Bob Schwarz and Jesse Funk established the musical project SCHWARZ & FUNK in 2001. Ibiza Chillout #2 Year Of Release: 2018 Format: Flac, Tracks Bitrate: lossless Sample Rate: 16bit/44. 14 HOTQ LABEL: HOT-Q GENRE: House RELEASED: 2020-06-05 DOWNLOAD SIZE:: 360,08 MB TRACKS 25 #DAH - DAH16 06:16 126bpm/ 2 Hot 2 Stop -. Com infinita tris. Disfruta escuchando la transmision en vivo ininterrumpido pasar el rato en LiveRadios. College & University. Connectez-vous dès maintenant !. Ibiza chillout. 00 Peak level 98. Chillout In Ibiza 4 -- The Coolest Chillout Grooves CD (Item 926466) Smart, 2003. Símbolo das festas de Ibiza, o produtor musical espanhol José Padilla faleceu no domingo aos 64 anos, vítima de câncer, informou sua equipe. miércoles, 29 de septiembre de 2010 Musica Del Mar Ibiza Summer Lounge Cafe (2010). The Chillout Session Ibiza 2002 Various Artists. 8 out of 5 stars 1,191. Jetzt online entdecken. Breakbeat Breakcore Breaks Chillout ChillStep Chiptune Classic Trance Crossbreed Dance Dark electro Darkside Darkwave Deep. Jim Breese. 7605, 07817 Sant Jordi, Islas Baleares. Jakatta - "American Dream (Radio Edit)" 2. Ribattezzato 'Padrino del chill out', il producer si è spento nel sonno sull. Cafe Deluxe Chillout Nu Ibiza Lounge (A Fine Selection of 27 Ambient and Smooth Downbeat Tracks) (28 ) 01. Along with a selection of the island's top DJs, producers. MADRID (AP) — José Padilla, a Spanish disc jockey known as the Emperor of Chill for the chill-out music he played at sets in Ibiza, has died. Thalia Arrasando Emi 2000 UK Edition - CD - 2T. Listen to 61 Chill Radio Stations. 2000 - 2004 by Frakkur. The total built offers an average 100 square meters with 50 seat inside and other 20 seat outside on the terrace of 20. Chilled Ibiza, Chill Out Lounge Cafe Essentials - Listen to Chilled Ibiza, Chill Out Lounge Cafe Essentials on Deezer. Related searches. M-Seven – Invisible – 05:14 01. 5 global ratings. Big, diverse and largely undiscovered, Ukraine is one of Europe’s last genuine travel frontiers, a nation rich in colourful tradition, warm-hearted people and off-the-map experiences. We at LetsSingIt do our best to provide all albums with a tracklist. multiformat – "deejay, sound producer, remixer, designer" Проект образовался в 2000 году. Chill Out Music 112; Drink Bar 007; Beach Party 2000; Ibiza Chill 999; Deep Lounge 0700; Hot Music 69; Chill Out 2017; Relaxation 2015; Keep Calm 666; Party Night 2016; Summer 2017; Summer Chill 777; Mellow Chill Out 009; After Party 004. The Classic Chillout Album: A Collection Of Classics For A Modern World Amazon. Henry Hacking – Get Down … Continue lendo. A sneak preview of one of the few real mansions left on Ibiza. Catalogusnr. Ibiza Lounge. Shop affordable wall art to hang in dorms, bedrooms, offices, or anywhere blank walls aren't welcome. Ibiza Spotlight home. Enjoy and share with a friend : ) Become a fan: http://goo. VA - Only a Dream Finest Ibiza Chillout torrent download location Download Direct VA - Only a Dream Finest Ibiza Chillout could be available for direct download Spónsored Link google. It is settled in the spectacular San Juan cliffs, the first line to the sea, consisting of four separate structures: the main house, two guesthouses, and a servant house. VARIOUS ARTISTS - Ministry of Sound: Ibiza Annual 2012 by VARIOUS ARTISTS - Amazon. Beautiful paths and gardens connect the houses. Sent with Australia Post Standard Service. Chillout Lounge. Glamorous and edgy all at once, Ibiza holidays are a clubber’s heaven, especially 24-hour party places like Ibiza Town and San Antonio. (Ibiza Chillout Mix)002. Ibiza Chillout -Ain El Sokhna. Cafe Chillout de Ibiza, Ibiza Lounge, Ibiza Lounge Club - Instrumental Chill-Out Music Playlist Depuis le début des années 2000, la chanteuse et pianiste. 5》西班牙IBIZA沙发音乐选辑 [MP3 160K 分轨]. Miss Wonder) 016. Feb 9, 2017 - Explore Victoria Fuentes's board "Chillout Ibiza Music", followed by 538 people on Pinterest. It is only ten minutes’ drive from Ibiza town and there are amazing views of Ibiza from the upper terraces of this villa. Buy London club and worldwide tour event tickets, read our latest news, book fitness classes and more. Descubre Ibiza con la realidad aumentada. All radio streams and radio stations at one glance. Above all it is a quiet island, easily explored from our luxury villas in Ibiza on foot or bicycle, with, at the same time a lively summer night scene in Ibiza Town and Sant. We've been online since 2005, as long as Youtube, longer than Twitter or VK, way longer than Instagram, Snapchat, etc. Beatport is the world's largest electronic music store for DJs. 4] Seven Years (The Best of `94-2000 fine. Without a doubt, Villa Fantasy is one of Ibiza’s most exotic properties, welcoming groups, retreats and families year after year seeking its unique charms. gl/9qKve3 Subsc. 2 sont en effet légion dans notre univers Musique. 29: 65 Himerius (Darkness Lounge Paradise Mix) (Erotic Chill Out. The Chillout Session: Ibiza Sunsets Various Artists. Продам винил паком 5шт 5000р. If it doesn't play, please try to click here. Re: Sasha - Live @ Pareidolia, Las Dalias, Ibiza (August 2020) Ive often thought his chillout Balearic sets are fresher sounding than his usual prerecorded tripe. To celebrate my 125th Sanctuary Show, I had another Legend of Lounge supplying the guest mix; the one and only Afterlife. Crazy All Night Party Mix - Chillout Dance Hits Straight from Ibiza, Sunset Sky. - RadioZET_Chill [00:00]. 35MB Tracklist. Incluye un viaje mental a sus salidas y sus puestas de sol. Harley Stone - Forever Jazz 03. 2: A Laid Back Mix of Blissful Beats and Chilled-Out House Various Artists. DC-10 - since 2000. Balearic beat, also known as Balearic house, Balearic or Ibizan chillout is an eclectic blend of DJ-led dance music that emerged in the mid-1980s. or Best Offer. Zouave - Sentir El Calor Chillout Ibiza Balearic Lounge (Wonderful Chill Out Music). Détends-toi (Musique chillout relaxante), Vol. ly/Maretimo-Webradios The ultimate Chillout trip to Ibiza. Listen to Chill Out 2017 – Chill Out Hits 2017, Summer Lounge, Party Music, Dance, Relax, Chill by Chilled Ibiza, Chill Out Lounge Cafe Essentials on Deezer. Итало Диско. See more ideas about Chill out lounge, Chill, Del mar. Download Pacha Ibiza - Chillout VA_-_Pacha_Ibiza_Chillout-(2CD)-2017-DRUM: 01 Be. What A Time To Be Alive Walker. La mejor manera de conocer y disfrutar la onda de la isla, desde cualquier lugar y en cualquier momento. Breakbeat Breakcore Breaks Chillout ChillStep Chiptune Classic Trance Crossbreed Dance Dark electro Darkside Darkwave Deep. In case of event cancellation, Amnesia Ibiza undertakes to refund the full amount paid by the customer. Premium Chillout Lounge by Schwarz & Funk 6 год. Find album reviews, stream songs, credits and award information for Ibiza Chillout [Ibiza] - Various Artists on AllMusic - 2000. cue), lossless. 11 янв 201217 094 просмотра. Container: FLAC (tracks +. chillout & ibiza chilton toyota tundra 2000-2002. Firebeatz x Schella & Pexem — Bounce (Original Mix) 10. 00 Peak level 98. This is the ultimate soundtrack to transport you into the sunshine. 1 (Ibiza Chillout Downbeat And Lounge Moments) Year Of Release: 2017 Label: 4Downbeat Genre: Chill Out / Downtempo / Lounge Quality: MP3 320 kBit/s Total Time: 01:01:42 Total Size: 129 MB WebSite: Album Preview. En 2014 el sello Universal Music recopilo en 2 CD, remixes de varios temas de Chill out llamado "Cafe mambo 20 years of ibiza chillout" que aparecen artistas de renombre como Lana Del Rey, el cantante británico George Michael, Phil Collins, entre otros músicos. Everyone was dancing non-stop. cafe mambo ibiza 2000 - 2 x cds balearic ibiza chillout house trance cd cdj dj. Ekkor kezdte a Deep House alappilléreit letenni Terry Lee Brown Jr és The Timewriter, Specdub megszállott rajongója lett a mestereknek. Sustain, use your brain, health's. Play Video. Villa Ibiza is located in Sant Josep de sa Talaia, Balearic Islands, Spain. The villa oozes character and its substantial 860m2 size and 17,000 m2 of land means that you have your own piece of paradise to enjoy during your stay on the island. I started going in about 2000, after it had reopened following a temporary closure in 1998. The waters are clean and crystal clear over a sandy bottom and are shallow to quite a long way out. Listening to this Hot Funky House Music - Ibiza Lounge Chillout mix two courtesy of irmachannel, check out the retro-futuristic vibe on this Throwback Thursday; check the playlist and the mix. Minimal Lounge, Acoustic Chill Out - Ibiza Lounge. Chillout Lounge Ibiza - L. De Seat Ibiza maakt sinds 1984 deel uit van modellenprogramma. Fifty Best Chillout Podcasts For 2020. Release events. Ypey – Love In Spain – 06:01 08. (Ibiza Chillout Mix)002. Ariana Grande's "7 Rings," Maggie Rogers' "Say It," and more incredible love songs have made their 2019 debut. Join Napster and access full-length songs on your phone, computer or home audio device. Deep House Ibiza 2020 presents tracks and remixes from Topsy Crettz, Dani Corbalan, Melih Aydogan, A-Mase & Sharliz, Hakan Akkus, VOLB3X, Remundo, Alex Spite & Olga Shilova, Mar G Rock, Rafo, Echevo, DJ Combo & Maureen Sky Jones, Sean Norvis & Copamore ft. 39 chillout tunes that grace the decks of Cafe Mambo, Cafe Del Mar and other hangouts on the isle including, Zero 7 'Destiny', I Monster 'Daydream In Blue', Groove Armada 'At The River', Lemon Jelly 'In The Bath', Wamdue Project 'King Of My Castle', Bent. Shop Chilled Ibiza: Experience the Ultimate Sunset Mix. Consejos para el alquiler de barcos en Ibiza y Formentera buena música chill out de serif;">Después del 2000, el turismo en Ibiza cambió drásticamente. 4] Seven Years (The Best of `94-2000 fine. FREE TRIAL. VA-Ibiza Elemental Chillout-(AYA55597-2)-CD-2008 Artist : VA Album : Ibiza Elemental Chillout Genre : Lo-Fi Source : CDDA Label : Ayia Napa Date : 00-00-2008 Encoder : LAME 3. 3 pre-owned from £1. 17 juillet 2000. Ministry Of Sound pres. Padilla died Sunday night at a hospital. Ibiza Lounge Club. Alicia Keys Has Self Doubts. 2000 "Please retry" £6. First Hour / Chill Out 1. Andrew Weatherall - Blood Sugar 6 (Nov 2000)added 20 hours ago. Gyromancer (False Profit Mix) – PMT. Download Pacha Ibiza - Chillout VA_-_Pacha_Ibiza_Chillout-(2CD)-2017-DRUM: 01 Be. We find this genuine Ibizan property in the surroundings of Santa Gertrudis, one of the best preserved areas in the centre of the island. €10 per bag per day. Artist: Various Artists Title Of Album: Ibiza Chillout Volume 2 Year Of Release: 2000 Label: ZYX Music Country: Various Countries Genre: Downtempo, Ambient, Chill Out Quality: FLAC (*tracks. Комментарии. or Best Offer. Chillout Internet radio. This fantastic completely renovated villa enjoys a perfect location at the top of Can Furnet, a famous and very safe neighbourhood, just a few minutes from the centre of Ibiza and several golf courses. If he stuck with this style we might have a replacement for Jose Padilla when he imminently pops his clogs. Enjoy and share with a friend : ) Become a fan: http://goo. DJs can upload and share mixes free with no limits. or Best Offer. Unfortunately we don't have the tracklist for the album "Chillout in Ibiza, Vol. Beach Party 2000 — Café Ibiza Chillout Lounge, Hawaiian Music. Ainsi, en plus des prix bas aperçus dans notre rayon , le montant votre achat Ibiza Chillout vous est remboursé à hauteur de 5% minimum en Rakuten Point. Chill OutとLoungeはシチュエーションによるスタイルの音楽なので、いろんなジャンルが混在しています。分かりずらいジャンルですので、その概略を紹介します。. Built in 2013 and finished to an exceptional standard, this minimalist contemporary villa is an architectural masterpiece built to deliver the utmost luxury while making the most of the stunning views across the sea to the Es Vedra rock. Be sure to check back frequently and follow us on Twitter for the latest opportunities and information. We are Universal Music Group, the world leading music company. From Ibiza Portinatx: Lounge,Vocal Lounge,Vocal Chillout,Chillout Dreams,Atmosheric Breaks,Jazz House. Q-Port Music. Détends-toi (Musique chillout relaxante), Vol. com/watch?v=m9hs80x-U5c 1. White Ibiza Villas requires a credit card security deposit of 2,000€. Clan Greco - Miles Ghost 00:00 02. Guitarra G [chillout mix]. The title Cdm refugees was borrowed from @Amp and Deck I don't know if you coined that phrase,but I like it. Chill-out music (sometimes also chillout, chill out, or simply chill) is a genre of electronic music and an umbrella term for several styles of electronic music characterized by their mellow style and mid-tempo beats—"chill" being derived from a slang injunction to "relax". CHILLOUT IN IBIZA ~ Vol 4 ~ 2CD VGC - Chill Out Smart Records. Label: ZYX Music - ZYX 81298-2 • Series: Ibiza Chillout - 2 • Format: 2x, CD Compilation • Country: Germany • Genre: Electronic • Style: Ambient, Downtempo. Chilled House Ibiza 2016 (2016) Ministry Of Sound pres.